<?xml version="1.0" standalone="no"?>
<!DOCTYPE svg PUBLIC "-//W3C//DTD SVG 1.1//EN" "http://www.w3.org/Graphics/SVG/1.1/DTD/svg11.dtd" >
<svg xmlns="http://www.w3.org/2000/svg">
<defs>
  <font id="flaticon" horiz-adv-x="308.955223880597">
    <font-face font-family="flaticon"
      units-per-em="300" ascent="300"
      descent="0" />
    <missing-glyph horiz-adv-x="0" />
    <glyph glyph-name="001-menu-burger"
      unicode="&#xF101;"
      horiz-adv-x="308.955223880597" d="M273.8529850746268 84.4208955223881H33.9828358208955C17.8164179104478 84.4208955223881 4.6634328358209 70.605223880597 4.6634328358209 53.6194029850747C4.6634328358209 36.6425373134329 17.8164179104478 22.8179104477612 33.9828358208955 22.8179104477612H273.8529850746268C290.0194029850746 22.8179104477612 303.1723880597015 36.6425373134329 303.1723880597015 53.6194029850747C303.1723880597015 70.6074626865672 290.0194029850746 84.4208955223881 273.8529850746268 84.4208955223881zM273.8529850746268 181.5492537313433H33.9828358208955C17.8164179104478 181.5492537313433 4.6634328358209 167.7335820895523 4.6634328358209 150.7455223880597C4.6634328358209 133.7686567164179 17.8164179104478 119.9440298507463 33.9828358208955 119.9440298507463H273.8529850746268C290.0194029850746 119.9440298507463 303.1723880597015 133.7686567164179 303.1723880597015 150.7455223880597C303.1723880597015 167.7335820895523 290.0194029850746 181.5492537313433 273.8529850746268 181.5492537313433zM33.9828358208955 217.0813432835821L273.8529850746268 217.079104477612C290.0194029850746 217.079104477612 303.1723880597015 230.894776119403 303.1723880597015 247.873880597015C303.1723880597015 264.8597014925374 290.0194029850746 278.6753731343284 273.8529850746268 278.6753731343284H33.9828358208955C17.8164179104478 278.6753731343284 4.6634328358209 264.8597014925374 4.6634328358209 247.873880597015C4.6634328358209 230.894776119403 17.8164179104478 217.079104477612 33.9828358208955 217.079104477612z" />
    <glyph glyph-name="002-menu-dots"
      unicode="&#xF102;"
      horiz-adv-x="300" d="M68.75 212.5C79.105375 212.5 87.5 220.894625 87.5 231.25S79.105375 250 68.75 250S50 241.605375 50 231.25S58.394625 212.5 68.75 212.5zM87.5 150C87.5 139.645 79.105375 131.25 68.75 131.25S50 139.645 50 150S58.394625 168.75 68.75 168.75S87.5 160.355 87.5 150zM168.75 150C168.75 139.645 160.355 131.25 150 131.25S131.25 139.645 131.25 150S139.645 168.75 150 168.75S168.75 160.355 168.75 150zM231.25 131.25C241.605 131.25 250 139.645 250 150S241.605 168.75 231.25 168.75S212.5 160.355 212.5 150S220.895 131.25 231.25 131.25zM87.5 68.75C87.5 58.395 79.105375 50 68.75 50S50 58.395 50 68.75S58.394625 87.5 68.75 87.5S87.5 79.105 87.5 68.75zM150 50C160.355 50 168.75 58.395 168.75 68.75S160.355 87.5 150 87.5S131.25 79.105 131.25 68.75S139.645 50 150 50zM250 68.75C250 58.395 241.605 50 231.25 50S212.5 58.395 212.5 68.75S220.895 87.5 231.25 87.5S250 79.105 250 68.75zM168.75 231.25C168.75 220.894625 160.355 212.5 150 212.5S131.25 220.894625 131.25 231.25S139.645 250 150 250S168.75 241.605375 168.75 231.25zM231.25 212.5C241.605 212.5 250 220.894625 250 231.25S241.605 250 231.25 250S212.5 241.605375 212.5 231.25S220.895 212.5 231.25 212.5z" />
    <glyph glyph-name="003-dots-menu"
      unicode="&#xF103;"
      horiz-adv-x="300" d="M36.0043017449587 297.3157545977615C16.6594850217441 297.3157545977615 0.9233543471885 281.5785376239739 0.9233543471885 262.2348071999914S16.6529672263522 227.1549461014531 36.0043017449587 227.1549461014531S71.0852491427289 242.8910767760088 71.0852491427289 262.2348071999914S55.3480321689413 297.3157545977615 36.0043017449587 297.3157545977615zM149.5432111729497 297.3157545977615C130.1994807489671 297.3157545977615 114.4622637751795 281.5785376239739 114.4622637751795 262.2348071999914S130.1994807489671 227.1549461014531 149.5432111729497 227.1549461014531C168.8880278961643 227.1549461014531 184.6274174684159 242.8910767760088 184.6274174684159 262.2348071999914S168.8945456915562 297.3157545977615 149.5432111729497 297.3157545977615zM264.9190526022299 227.1538598022211C284.2595241285165 227.1538598022211 300 242.8899904767768 300 262.2337209007593S284.2725597193003 297.3157545977615 264.9190526022299 297.3157545977615S229.8381052044597 281.5785376239739 229.8381052044597 262.2348071999914S245.5774947767113 227.1538598022211 264.9190526022299 227.1538598022211zM35.0874651931621 114.743615276264C54.4311956171447 114.743615276264 70.1716714886283 130.4764870531237 70.1716714886283 149.8234763748022C70.1716714886283 169.1715519957128 54.4311956171447 184.9076826702684 35.0874651931621 184.9076826702684S0 169.1704656964807 0 149.8234763748022C0 130.4764870531236 15.7437347691795 114.743615276264 35.0874651931621 114.743615276264zM148.6263746211531 114.743615276264C167.9668461474398 114.743615276264 183.7073220189234 130.4764870531237 183.7073220189234 149.8234763748022C183.7073220189234 169.1715519957128 167.9798817382236 184.9076826702684 148.6263746211532 184.9076826702684C129.2761264017787 184.9076826702684 113.545427223383 169.1715519957128 113.545427223383 149.8234763748022C113.545427223383 130.4764870531236 129.2826441971706 114.743615276264 148.6263746211531 114.743615276264zM264.0119927435212 114.743615276264C283.3600683644317 114.743615276264 299.0929401412914 130.4764870531237 299.0929401412914 149.8234763748022C299.0929401412914 169.1715519957128 283.3600683644317 184.9076826702684 264.0119927435212 184.9076826702684S228.9180097549672 169.1715519957128 228.9180097549672 149.8234763748022C228.9180097549672 130.4764870531236 244.6584856264507 114.743615276264 264.0119927435212 114.743615276264zM35.8902403256001 72.8461401977789C16.5465099016175 72.8461401977789 0.802775132438 57.1132684209192 0.802775132438 37.7651928000087C0.802775132438 18.4247212737221 16.5465099016175 2.6853317014705 35.8902403256001 2.6853317014705S70.9701014241383 18.4171171790982 70.9701014241383 37.7651928000087S55.2339707495827 72.8461401977789 35.8902403256001 72.8461401977789zM149.4356675489831 72.8461401977789C130.0908508257685 72.8461401977789 114.348202355821 57.1132684209192 114.348202355821 37.7651928000087C114.348202355821 18.4247212737221 130.0854193296085 2.6853317014705 149.4356675489831 2.6853317014705C168.7761390752697 2.6853317014705 184.5155286475213 18.4171171790982 184.5155286475213 37.7651928000087S168.7761390752697 72.8461401977789 149.4356675489831 72.8461401977789zM264.8082500805672 72.8461401977789C245.4677785542806 72.8461401977789 229.727302682797 57.1132684209192 229.727302682797 37.7651928000087C229.727302682797 18.4247212737221 245.4677785542806 2.6853317014705 264.8082500805672 2.6853317014705C284.1563257014777 2.6853317014705 299.8891974783374 18.4171171790982 299.8891974783374 37.7651928000087S284.1487216068539 72.8461401977789 264.8082500805672 72.8461401977789z" />
    <glyph glyph-name="004-down-arrow"
      unicode="&#xF104;"
      horiz-adv-x="300" d="M295.2048390637322 223.7884047837787L285.3779299018691 233.6836071837983C282.2852218310718 236.7738762103757 278.1705542321482 238.4763290758462 273.7729575037196 238.4763290758462C269.3777998195107 238.4763290758462 265.2582541321475 236.7738762103757 262.1655460613501 233.6836071837983L150.0670737160465 121.5802567500549L37.8393320270896 233.8079984390117C34.7515020447321 236.8982674655892 30.6319563573688 238.5982812868397 26.2367986731599 238.5982812868397S17.7196562573679 236.8982674655892 14.6293872307905 233.8079984390117L4.8000390247075 223.973772144489C-1.6000130082358 217.5785981999854 -1.6000130082358 207.1614403369133 4.8000390247075 200.7662663924097L138.4206375661591 66.6651761396434C141.5084675485166 63.5773461572858 145.6231351474402 61.4017187131603 150.057317539167 61.4017187131603H150.1085374677843C154.506134196213 61.4017187131603 158.6208017951365 63.5797852015057 161.7086317774941 66.6651761396434L295.2048390637322 200.4028488036488C298.2975471345295 203.4906787860064 299.9951219115602 207.7297376401434 300 212.1248953243522C300 216.5224920527809 298.2975471345296 220.703013845641 295.2048390637322 223.7884047837787z" />
    <glyph glyph-name="005-search"
      unicode="&#xF105;"
      horiz-adv-x="300" d="M168.7975640324394 37.5415074918062C96.3367888813758 37.5415074918062 37.5951280648787 96.2825222773024 37.5951280648787 168.7439434593668S96.3361428503749 299.9457333959266 168.7975640324394 299.9457333959266S300 241.2047186104304 300 168.7432974283659S241.258339183503 37.5415074918062 168.7975640324394 37.5415074918062zM168.7975640324394 262.4591385391948C117.0394983353935 262.4591385391948 75.0817229216106 220.5013631254119 75.0817229216106 168.7432974283659S117.0394983353935 75.0274563175372 168.7975640324394 75.0274563175372S262.5134051432682 116.98523173132 262.5134051432682 168.7432974283659S220.5549836984844 262.4591385391948 168.7975640324394 262.4591385391948zM18.8518306365128 0.0549126350743C13.8696395577702 0.025841240035 9.08125777929 1.9820231106823 5.5442380495032 5.4906174764307C-1.8056566474437 12.7804312902962 -1.8541089725092 24.6473747453562 5.4357048413563 31.997269442303C5.4718825774053 32.0334471783519 5.5080603134542 32.0696249144009 5.5442380495032 32.1058026504498L76.0184678728783 102.580032473825C83.6267749701749 109.9299271707718 95.7527768565854 109.7199670954877 103.1026715535323 102.1116599981911S110.242606175195 82.377351014484 102.6342990778984 75.0274563175372L32.1594232235224 5.4906174764307C28.6224034937356 1.9820231106823 23.8340217152554 0.025841240035 18.8518306365128 0.0549126350743z" />
    <glyph glyph-name="006-quote"
      unicode="&#xF106;"
      horiz-adv-x="300" d="M69.6177020243 161.0566981976559V136.9080087316586H129.9493794135969V6.96177020243H0V136.9080087316586H0.0031408843683V161.0566981976559C0.0031408843683 210.093755398395 14.1119934669605 246.5060278805836 41.9402289704705 269.2884326463522C61.1907092640384 285.047819964508 85.5576901936355 293.03822979757 114.3658816200682 293.03822979757V223.4268095420067C98.7274183500935 223.4268095420067 69.6177020243 223.4268095420067 69.6177020243 161.0566981976559zM284.4180726486554 223.4268095420067V293.03822979757C255.611451664407 293.03822979757 231.2444707348099 285.047819964508 211.9939904412419 269.2884326463522C184.165754937732 246.5060278805836 170.0553319129556 210.0921849562109 170.0553319129556 161.0566981976559V136.9080087316586H170.0553319129556V6.96177020243H300V136.9080087316586H239.6683226107031V161.0566981976559C239.6698930528873 223.4268095420067 268.7796093786808 223.4268095420067 284.4180726486554 223.4268095420067z" />
    <glyph glyph-name="007-arroba"
      unicode="&#xF107;"
      horiz-adv-x="300" d="M289.246875 169.96875A140.625 140.625 0 0 1 10.5375 131.7A141.5625 141.5625 0 0 1 131.25 10.59375A146.25 146.25 0 0 1 150.15 9.3750000000001A139.21875 139.21875 0 0 1 222.478125 29.4843750000001A9.375 9.375 0 1 1 212.8125 45.525A121.940625 121.940625 0 1 0 263.98125 106.734375A20.146875 20.146875 0 0 0 225 113.85V215.625A9.375 9.375 0 0 1 206.25 215.625V199.44375A75 75 0 1 1 208.125 102.646875A38.765625 38.765625 0 0 1 281.53125 100.078125A142.5 142.5 0 0 1 289.246875 169.96875zM150 93.75A56.25 56.25 0 1 0 206.25 150A56.30625 56.30625 0 0 0 150 93.75z" />
    <glyph glyph-name="008-at"
      unicode="&#xF108;"
      horiz-adv-x="300" d="M150 300C67.2910737053589 300 0 232.7089262946412 0 150S67.2910737053589 1e-13 150 1e-13C176.376421497289 1e-13 202.3130320553273 6.9397401058637 225.0183522866305 20.0774015737891L206.2500804924852 52.5422746532384C189.2397645755792 42.7002975002254 169.7844089275825 37.4998390150295 150 37.4998390150295C87.9641196697876 37.4998390150295 37.4998390150295 87.9641196697876 37.4998390150295 150S87.9641196697876 262.5001609849704 150 262.5001609849704S262.5001609849704 212.0358803302123 262.5001609849704 150V133.6671088387188C262.5001609849704 121.3987662111865 254.6176928921916 112.5001609849704 243.7499195075148 112.5001609849704C233.4133965253004 112.5001609849704 224.9996780300591 120.9138794802117 224.9996780300591 131.2504024624261V206.2500804924852H199.0804538488286C185.8899893105979 217.7733846768065 168.8487642793668 225.0003219699409 150 225.0003219699409C108.6455368526794 225.0003219699409 74.9996780300591 191.3544631473205 74.9996780300591 150S108.6455368526794 74.9996780300591 150 74.9996780300591C169.6929694643707 74.9996780300591 187.4979071953842 82.7874869602174 200.8944324957821 95.2464357927544C211.2206524398882 82.9748734658132 226.4936185557716 74.9996780300591 243.7499195075148 74.9996780300591C275.2900949167386 74.9996780300591 300 100.7714399783637 300 133.6671088387188V150C300 232.7089262946411 232.7089262946411 300 150 300zM150 112.5001609849705C129.3179388772264 112.5001609849705 112.5001609849704 129.3185828171082 112.5001609849704 150C112.5001609849704 170.6820611227736 129.3185828171082 187.4998390150296 150 187.4998390150296C170.6820611227736 187.4998390150296 187.4998390150295 170.6814171828918 187.4998390150295 150C187.4998390150295 129.3179388772264 170.6820611227736 112.5001609849705 150 112.5001609849705z" />
    <glyph glyph-name="009-shopping-cart"
      unicode="&#xF109;"
      horiz-adv-x="300" d="M136.4636363636364 56.25C146.5545454545455 56.25 154.7454545454546 47.803125 154.7454545454546 37.396875S146.5545454545455 18.54375 136.4636363636364 18.54375S118.1818181818182 26.990625 118.1818181818182 37.396875S126.3727272727273 56.25 136.4636363636364 56.25zM215.9818181818182 56.25C226.0727272727273 56.25 234.2636363636364 47.803125 234.2636363636364 37.396875S226.0727272727273 18.54375 215.9818181818182 18.54375S197.7 26.990625 197.7 37.396875S205.8909090909091 56.25 215.9818181818182 56.25zM15.0727272727272 244.584375H40.9C45.9272727272727 244.584375 50.3454545454545 241.125 51.6909090909091 236.11875C51.6909090909091 236.11875 51.7 236.11875 51.7 236.109375C60.4 203.8125 79.2 134.025 87.9363636363636 101.60625C92.0363636363636 86.371875 105.4909090909091 75.834375 120.8090909090909 75.834375H231.1909090909091C246.8545454545455 75.834375 260.5090909090909 86.83125 264.3 102.50625C271.9909090909091 134.203125 287.2636363636364 197.2125 287.2636363636364 197.2125C288.1090909090909 200.709375 287.3454545454545 204.421875 285.1909090909091 207.2625C283.0363636363636 210.1125 279.7363636363637 211.771875 276.2363636363636 211.771875H118.1818181818182C111.9090909090909 211.771875 106.8181818181818 206.521875 106.8181818181818 200.053125S111.9090909090909 188.334375 118.1818181818182 188.334375H261.6818181818182L242.2454545454546 108.16875C240.9818181818182 102.9375 236.4181818181818 99.271875 231.1909090909091 99.271875H120.8090909090909C115.6909090909091 99.271875 111.2 102.796875 109.8272727272727 107.878125C109.8272727272727 107.8875 109.8272727272727 107.8875 109.8272727272727 107.8875C101.0909090909091 140.30625 82.2909090909091 210.09375 73.5909090909091 242.390625C69.5272727272728 257.53125 56.1454545454546 268.021875 40.9 268.021875H15.0727272727273C8.8 268.021875 3.7090909090909 262.771875 3.7090909090909 256.303125S8.8 244.584375 15.0727272727273 244.584375z" />
    <glyph glyph-name="010-down-arrow-1"
      unicode="&#xF10A;"
      horiz-adv-x="300" d="M297.1898492385757 171.951812594116C293.4457159263361 175.701219333556 287.3672121734137 175.701219333556 283.6125320067734 171.951812594116L159.6026179636368 47.9319376329343V275.2500483397494C159.6026179636368 280.5539442305777 155.3071185407841 284.8494436534304 150.0032226499558 284.8494436534304S140.4038273362747 280.5539442305777 140.4038273362747 275.2500483397494V47.9219767148892L16.3892258022934 171.951812594116C12.6345456356531 175.701219333556 6.561315309931 175.701219333556 2.8119085704911 171.951812594116C-0.9374981689489 168.2076792818764 -0.9374981689489 162.1291755289541 2.8119085704911 158.3744953623138L143.2122202886323 17.9583633625716C143.5924929834122 17.5786766041473 144.0067499868164 17.2429350723925 144.4391710172441 16.9359044220617C144.5100693162709 16.8855138954807 144.5762801244529 16.8298499416994 144.6483502961908 16.7812172241851C144.7760844217101 16.6956705162685 144.9102638471409 16.6218425354638 145.0420995271494 16.5421551911032C145.1809664434249 16.4577803558977 145.3169036779225 16.3693039662032 145.4604580850428 16.2925463036205C145.5536219655821 16.2427417133951 145.6508874006105 16.2023121048592 145.745223153861 16.1554371964118C145.9327227876508 16.0622733158725 146.119636485085 15.967937562622 146.3135814187863 15.8870783455501C146.3833078451019 15.8577815277704 146.4559639531954 15.8366878189691 146.5268622522222 15.8091488102563C146.7483461946363 15.7230161659841 146.9704160734061 15.6386413307787 147.199517188443 15.5689149044631C147.2639701875582 15.5495790047285 147.3301809957402 15.5366884049055 147.3946339948555 15.5185243778821C147.6301804098039 15.4523135697 147.8668986974635 15.3878605705848 148.1100622850346 15.3392278530706C148.2126011472634 15.3187200806248 148.3180696912701 15.3087591625797 148.4211944898545 15.2917670082676C148.6274440870233 15.2577826996431 148.8325218114808 15.2202827728852 149.0434588994944 15.1991890640838C149.3610364042258 15.1675485008818 149.6815435907352 15.1505563465696 150.0032226499558 15.1505563465696C150.3243157728208 15.1505563465696 150.6442370229746 15.1669625645262 150.9612285913504 15.1991890640838C151.1809547246978 15.2208687092408 151.3948214944892 15.25954050871 151.6098601369919 15.2958685627567C151.7041958902424 15.3116888443577 151.7997035162041 15.3204778896916 151.8934533330989 15.3392278530706C152.142476284226 15.389032443296 152.3856398717971 15.4546573151225 152.627631586657 15.5232118687268C152.6862252222163 15.5396180866834 152.7459907304868 15.5507508774397 152.8039984296905 15.5683289681075C153.0342714174386 15.6386413307787 153.2580991052751 15.7236021023397 153.4807549204005 15.8103206829675C153.5504813467161 15.8372737553247 153.6219655820984 15.858367464126 153.6911060720584 15.8870783455501C153.8809494512706 15.9661797535552 154.0625897215044 16.0581717613833 154.245987800805 16.1489918965002C154.3455969812559 16.1982105503701 154.4481358434846 16.2409839043283 154.5459872148687 16.2931322399761C154.6819244493663 16.3663742844252 154.8102445112411 16.4507491196306 154.9426661276052 16.5298505276357C155.0815330438808 16.6130534901299 155.2227437055787 16.6915689617794 155.3575090673651 16.7818031605407C155.4260636209695 16.8280921326325 155.4893447473735 16.8814123409915 155.5573133646223 16.9294591221502C155.9920781404724 17.2382475815477 156.408678889299 17.5763328587249 156.7907093931457 17.9583633625716L297.1910211112869 158.3744953623137C300.9392559780157 162.1239021017537 300.9339825508154 168.2024058546761 297.1898492385757 171.951812594116z" />
    <glyph glyph-name="011-play-button"
      unicode="&#xF10B;"
      horiz-adv-x="300" d="M21.4285714285714 300L278.5714285714285 150L21.4285714285714 1e-13z" />
    <glyph glyph-name="012-play"
      unicode="&#xF10C;"
      horiz-adv-x="300" d="M277.3491332839585 163.0794903765926L37.3498832816147 298.0790685029109C32.6998978128193 300.6890603466864 27.0299155315139 300.6290605341859 22.4399298752191 297.9590688779098C17.819944312674 295.2590773153834 14.9999531251465 290.3390926903354 14.9999531251465 284.9991093777832V14.9999531251465C14.9999531251465 9.6599698125943 17.819944312674 4.7399851875463 22.4399298752191 2.0399936250199C24.779922562742 0.6899978437567 27.3899144065175 0 29.9999062502929 0C32.5198983753176 0 35.0698904065925 0.6299980312562 37.3498832816147 1.9199940000187L277.3491332839585 136.9195721263371C282.0591185652545 139.5895637826132 284.9991093777832 144.5695482201618 284.9991093777832 149.9995312514649S282.0591185652545 160.4094987203165 277.3491332839585 163.0794903765926z" />
    <glyph glyph-name="013-link"
      unicode="&#xF10D;"
      horiz-adv-x="300" d="M209.923828125 158.115234375A114.310546875 114.310546875 0 0 1 188.4140625 188.0859375L188.26171875 188.23828125A113.830078125 113.830078125 0 0 1 163.212890625 207.146484375C155.07421875 198.10546875 144.03515625 184.470703125 141.908203125 180.966796875L141.8203125 180.80859375V180.767578125V180.7265625C140.947265625 179.203125 140.40234375 176.75390625 140.173828125 174.28125L140.47265625 174.146484375L140.548828125 174.111328125A74.501953125 74.501953125 0 0 0 160.16015625 159.9609375A74.2734375 74.2734375 0 0 0 174.298828125 140.26171875L174.33984375 140.19140625C177.9609375 132.4453125 177.19921875 118.8046875 172.681640625 110.923828125L172.587890625 110.748046875C169.658203125 105.521484375 150.533203125 82.2890625 142.41796875 74.572265625L141.720703125 73.869140625C134.00390625 65.759765625 110.771484375 46.62890625 105.5390625 43.705078125L105.369140625 43.6113281249999C97.482421875 39.0878906249999 83.8359375 38.3378906249999 76.072265625 41.958984375L76.001953125 41.994140625A74.349609375 74.349609375 0 0 0 56.349609375 56.0859375L56.302734375 56.1328125A74.51953125 74.51953125 0 0 0 42.193359375 75.796875L42.1875 75.87890625C38.560546875 83.6191406249999 39.322265625 97.265625 43.83984375 105.17578125L43.93359375 105.345703125C46.734375 110.34375 64.330078125 131.7890625 72.966796875 140.4140625C68.748046875 151.27734375 66.826171875 163.564453125 67.400390625 176.30859375A96.943359375 96.943359375 0 0 0 69.09375 190.517578125C59.9765625 182.970703125 50.9296875 174.861328125 46.27734375 170.05078125C36.9140625 161.00390625 15.12890625 135.3515625 9.216796875 124.88671875C-1.857421875 105.486328125 -3.087890625 78.26953125 6.24609375 58.67578125L6.591796875 57.978515625A113.9765625 113.9765625 0 0 1 28.078125 28.048828125L28.259765625 27.8671875A114.140625 114.140625 0 0 1 58.177734375 6.38671875L58.880859375 6.041015625C67.669921875 1.8515625 78.005859375 -0.2109375 88.4765625 -0.205078125C101.33203125 -0.205078125 114.3984375 2.900390625 125.091796875 9.005859375C135.556640625 14.90625 161.21484375 36.71484375 170.244140625 46.06640625C179.619140625 55.08984375 201.41015625 80.765625 207.3046875 91.224609375C218.373046875 110.619140625 219.609375 137.82421875 210.26953125 157.435546875zM293.9765625 241.107421875L293.625 241.822265625A114.1640625 114.1640625 0 0 1 272.115234375 271.763671875L271.962890625 271.921875A114.15234375 114.15234375 0 0 1 242.0390625000001 293.408203125L241.3300781250001 293.75390625C221.736328125 303.076171875 194.53125 301.857421875 175.130859375 290.7890625C164.677734375 284.900390625 139.001953125 263.0859375 129.978515625 253.7109375C120.603515625 244.6875 98.818359375 219.029296875 92.91796875 208.564453125C81.84375 189.1640625 80.61328125 161.947265625 89.947265625 142.353515625L90.29296875 141.65625A113.9296875 113.9296875 0 0 1 111.779296875 111.7265625L111.9609375 111.5390625A113.71875 113.71875 0 0 1 137.009765625 92.642578125C145.142578125 101.68359375 156.181640625 115.318359375 158.30859375 118.81640625L158.4023437500001 118.9921875V119.02734375V119.0625C159.2753906250001 120.5859375 159.8261718750001 123.03515625 160.0546875000001 125.5078125L159.7617187500001 125.6367187500001L159.6855468750001 125.6718750000001A74.443359375 74.443359375 0 0 0 140.0390625000001 139.8398437500001A74.302734375 74.302734375 0 0 0 125.9296875000001 159.5097656250001L125.8945312500001 159.5800781250001C122.2675781250001 167.3203125000001 123.0292968750001 180.9609375000001 127.5468750000001 188.8476562500001L127.646484375 189.0234375000001C130.576171875 194.2500000000001 149.701171875 217.4824218750001 157.810546875 225.1992187500001L158.5078125 225.8964843750001C166.212890625 234.0117187500001 189.451171875 253.1250000000001 194.677734375 256.0546875000001L194.8476562500001 256.1484375000001C202.734375 260.6660156250001 216.3808593750001 261.4218750000001 224.1445312500001 257.8007812500001L224.2148437500001 257.7656250000001A74.4140625 74.4140625 0 0 0 243.8847656250001 243.6562500000001A74.2734375 74.2734375 0 0 0 258.0234375000001 223.9570312500001L258.0585937500001 223.8867187500001C261.6914062500001 216.1464843750001 260.9238281250001 202.5000000000001 256.4121093750001 194.5898437500001L256.3125000000001 194.4140625000001C253.5175781250001 189.421875 235.9160156250001 167.9765625 227.2851562500001 159.3515625C231.4980468750001 148.4882812500001 233.4199218750001 136.201171875 232.8515625000001 123.45703125A96.849609375 96.849609375 0 0 0 231.1523437500001 109.248046875C240.2695312500001 116.7890625 249.3164062500001 124.9042968750001 253.9687500000001 129.71484375C263.3437500000001 138.7441406250001 285.1289062500001 164.40234375 291.0292968750001 174.8671875C302.0742187500001 194.3027343750001 303.2988281250001 221.484375 293.9765625 241.1074218750001z" />
    <glyph glyph-name="014-attach-file"
      unicode="&#xF10E;"
      horiz-adv-x="300" d="M104.675 26.9165A40.359125 40.359125 0 0 0 75.951875 38.806125L38.806125 75.952125A40.669125 40.669125 0 0 0 38.806125 133.410625L75.5125 170.105A15.62325 15.62325 0 0 0 97.607125 148.01025L60.900875 111.315875A9.446 9.446 0 0 1 60.900875 98.046875L98.046875 60.900875A9.764375 9.764375 0 0 1 111.315875 60.900875L148.01025 97.607375A15.62325 15.62325 0 1 0 170.105 75.5125L133.410625 38.805875A40.366375 40.366375 0 0 0 104.675 26.9165zM213.44 125.317375A15.623375 15.623375 0 0 0 202.392625 151.98975L239.099125 188.684125A9.446 9.446 0 0 1 239.099125 201.953125L201.953125 239.099125A9.764375 9.764375 0 0 1 188.684125 239.099125L151.98975 202.392625A15.62325 15.62325 0 1 0 129.895 224.4875L166.589375 261.194125A40.684125 40.684125 0 0 0 224.047875 261.194125L261.193875 224.048125A40.669125 40.669125 0 0 0 261.193875 166.589625L224.4875 129.895A15.5115 15.5115 0 0 0 213.44 125.317375zM134.375 118.75A15.623375 15.623375 0 0 0 123.327625 145.422375L154.577625 176.672375A15.623375 15.623375 0 1 0 176.672375 154.577625L145.422375 123.327625A15.5125 15.5125 0 0 0 134.375 118.75z" />
    <glyph glyph-name="015-right"
      unicode="&#xF10F;"
      horiz-adv-x="300" d="M298.1689453125 154.419140625L204.4189453125 248.169140625C201.97734375 250.6107421875 198.022265625 250.6107421875 195.58125 248.169140625C193.1396484375 245.7275390625 193.1396484375 241.7724609375 195.58125 239.3314453125L278.6625 156.2501953125H6.2501953125C2.7955078125 156.2501953125 0 153.4546875 0 150S2.7955078125 143.7498046875 6.2501953125 143.7498046875H278.6625L195.58125 60.669140625C193.1396484375 58.2275390625 193.1396484375 54.2724609375 195.58125 51.8314453125C196.8017578125 50.6109375 198.4013671875 50.000390625 200.000390625 50.000390625C201.5994140625 50.000390625 203.1984375 50.6109375 204.41953125 51.8314453125L298.16953125 145.5814453125C300.610546875 148.0224609375 300.610546875 151.9775390625 298.1689453125 154.419140625z" />
    <glyph glyph-name="016-down-right-arrow"
      unicode="&#xF110;"
      horiz-adv-x="300" d="M200 117.6775L87.500375 230.17725L69.82275 212.499625L182.3225 100H87.5V75H225.0000000000001V212.5H200.0000000000001z" />
    <glyph glyph-name="017-levels"
      unicode="&#xF111;"
      horiz-adv-x="300" d="M0 0L300 0L300 300z" />
    <glyph glyph-name="018-search-1"
      unicode="&#xF112;"
      horiz-adv-x="300" d="M168.75 275A106.0875 106.0875 0 0 1 85.4 103.075L28.6625 46.3375A12.5 12.5 0 1 1 46.3375 28.6625L103.075 85.4A106.25 106.25 0 1 1 168.75 275zM168.75 87.5A81.25 81.25 0 1 0 250 168.75A81.35 81.35 0 0 0 168.75 87.5z" />
    <glyph glyph-name="019-heart"
      unicode="&#xF113;"
      horiz-adv-x="300" d="M217.2615052734375 287.6953125C190.2008056640625 287.6953125 165.3121945312501 274.607848828125 150 253.2829283203125C134.68780546875 274.607848828125 109.7991943359375 287.6953125 82.7384947265625 287.6953125C37.1246337890625 287.6953125 0 250.6462095703125 0 205.1078794921875C0 124.095153515625 123.687744140625 27.4955748046875 134.799957421875 18.9697265625C138.775634765625 14.9711607421875 144.25048828125 12.6960755859375 150 12.6960755859375S161.224365234375 14.9711607421875 165.200042578125 18.9697265625C176.312255859375 27.4955748046875 300 124.095153515625 300 205.1078794921875C300 250.6462095703125 262.8753662109375 287.6953125 217.2615052734375 287.6953125zM217.2615052734375 287.6953125" />
    <glyph glyph-name="020-heart-1"
      unicode="&#xF114;"
      horiz-adv-x="300" d="M150 12.6960755859375C144.25048828125 12.6960755859375 138.775634765625 14.9711607421875 134.799957421875 18.9697265625C123.687744140625 27.4955748046875 0 124.095153515625 0 205.1078794921875C0 250.6462095703125 37.1246337890625 287.6953125 82.749938671875 287.6953125C109.7991943359375 287.6953125 134.6992494140625 274.607848828125 150 253.2829283203125C165.3007505859375 274.607848828125 190.2008056640625 287.6953125 217.250061328125 287.6953125C262.8753662109375 287.6953125 300 250.6462095703125 300 205.1078794921875C300 124.095153515625 176.312255859375 27.4955748046875 165.200042578125 18.9697265625C161.224365234375 14.9711607421875 155.74951171875 12.6960755859375 150 12.6960755859375zM82.749938671875 268.9453125C47.463226171875 268.9453125 18.75 240.3076171875 18.75 205.1078794921875C18.75 131.3072203125 145.46356171875 34.41925078125 146.738433984375 33.4442138671875C147.21221953125 33.0963134765625 147.6493833984375 32.6820375 148.0384828125 32.244873046875C148.974609375 31.182861328125 151.0002134765625 31.182861328125 151.938629296875 32.244873046875C152.3368833984375 32.6820375 152.7740478515625 33.082580859375 153.236389453125 33.4442138671875C154.53643828125 34.41925078125 281.25 131.3713072265625 281.25 205.1078794921875C281.25 240.3076171875 252.536773828125 268.9453125 217.250061328125 268.9453125C191.725158984375 268.9453125 168.71337890625 253.907776171875 158.5990904296875 230.657958984375C155.625915234375 223.8212583984375 144.374084765625 223.8212583984375 141.4009095703125 230.657958984375C131.28662109375 253.907776171875 108.2633970703125 268.9453125 82.749938671875 268.9453125zM82.749938671875 268.9453125" />
    <glyph glyph-name="021-heart-2"
      unicode="&#xF115;"
      horiz-adv-x="300" d="M275.8981000456225 250.3789606911066C243.2706883103504 282.9975422743529 190.1926444833625 282.9975422743529 157.5740629001163 250.3789606911066L149.9977924619935 242.8071053289968L142.4259370998837 250.3789606911066C109.8073555166374 283.0019573503658 56.7248966136367 283.0019573503658 24.1063150303904 250.3789606911066C-7.850005150922 218.4226405097941 -8.057513723528 167.768473413884 23.6250717449852 132.5494120590443C52.5217442493635 100.4385642172806 137.7459565262182 31.0644748267083 141.3619037807767 28.1284492781351C143.8166860439447 26.1328349203079 146.7703718965695 25.1615181974717 149.7063974451427 25.1615181974717C149.8035291174263 25.1615181974717 149.9006607897099 25.1615181974717 149.9933773859806 25.1659332734845C153.0309496828504 25.024650841072 156.0905973597845 26.0666087801145 158.6248509911845 28.1284492781351C162.2407982457431 31.0644748267083 247.4738406746236 100.4385642172806 276.3793433310276 132.5538271350572C308.0575137235279 167.768473413884 307.850005150922 218.4226405097941 275.8981000456225 250.3789606911066zM256.6881043135293 150.2715271747929C234.1579714197413 125.242461257708 172.2277001869049 73.6213925149745 149.9933773859806 55.3032421374855C127.7590545850564 73.6169774389616 65.8420285802587 125.2336311056822 43.3163107624836 150.26711209878C21.2144402419462 174.8325950345112 21.0069316693402 209.8176573606676 42.8350674770784 231.6457931684057C53.9831344096308 242.7894450249452 68.6235264683807 248.3656860292278 83.2639185271306 248.3656860292278S112.5447026446305 242.7938601009581 123.6927695771829 231.6457931684057L140.3464362978116 214.992126447777C142.3288054276001 213.0097573179885 144.827738450897 211.8265169465335 147.4502936025548 211.4114998013216C151.7064268789828 210.497579066653 156.3245963884678 211.6852345141209 159.6359033981368 214.9877113717641L176.2984002707913 231.6457931684057C198.5989492119089 253.9375119574976 234.8732137338298 253.9330968814847 257.1605174469087 231.6457931684057C278.9886532546469 209.8176573606676 278.7811446820409 174.8325950345112 256.6881043135293 150.2715271747929z" />
    <glyph glyph-name="022-love"
      unicode="&#xF116;"
      horiz-adv-x="300" d="M265.7709375 135.16828125L153.28125 24.87703125A4.6875 4.6875 0 0 0 146.71875 24.87703125L34.2290625 135.16828125A82.8140625 82.8140625 0 0 0 15.110625 224.3714062500001A81.92953125 81.92953125 0 0 0 79.2525 275.8401562500001C105.92203125 279.4350000000001 130.828125 268.6800000000001 150 245.5007812500001C169.1915625 268.7165625000001 194.0896875 279.4687500000001 220.65375 275.9123437500001A82.68046875 82.68046875 0 0 0 265.7709375 135.16828125z" />
    <glyph glyph-name="023-bubble-chat"
      unicode="&#xF117;"
      horiz-adv-x="300" d="M150 275A125 125 0 1 1 211.55 41.25L258.55 25.5875A12.3375 12.3375 0 0 1 262.5 25.0000000000001A12.5 12.5 0 0 1 274.35 41.45L258.75 88.45A124.85 124.85 0 0 1 150 275zM233.1625 86L242.7375 57.25L213.9875 66.8250000000001A12.3875 12.3875 0 0 1 203.35 65.5750000000001A100.25 100.25 0 1 0 234.45 96.675A12.5 12.5 0 0 1 233.1625 86.0000000000001z" />
    <glyph glyph-name="024-geometric"
      unicode="&#xF118;"
      horiz-adv-x="300" d="M150 24.01640625C149.223046875 24.01640625 148.477734375 24.3251953125 147.928125 24.8748046875L127.41796875 45.3873046875C126.2736328125 46.5310546875 126.2736328125 48.3861328125 127.41796875 49.5298828125L248.4000000000001 170.51015625L232.0330078125 186.8771484375L111.05390625 65.8951171875C110.504296875 65.3455078125 109.7595703125 65.03671875 108.98203125 65.03671875S107.459765625 65.344921875 106.91015625 65.8951171875L86.40234375 86.4029296875C85.2580078125 87.5466796875 85.2580078125 89.4017578125 86.40234375 90.5455078125L207.38203125 211.528125L191.0173828125 227.8927734375L70.0359375 106.9130859374999C68.8916015625 105.76875 67.0365234375 105.7693359375 65.8927734375 106.9125L45.3826171875 127.4203125C44.8330078125 127.969921875 44.52421875 128.715234375 44.52421875 129.4921875S44.8330078125 131.014453125 45.38203125 131.5634765625L166.3646484375001 252.54609375L150.0000000000001 268.91015625L29.0179687500001 147.9310546875C27.8736328125001 146.78671875 26.0191406250001 146.78671875 24.8748046875001 147.9310546875C23.7304687500001 149.0748046875 23.7304687500001 150.9298828125 24.8748046875001 152.07421875L147.9287109375001 275.1251953125C149.0730468750001 276.2689453125 150.9281250000001 276.2689453125 152.0718750000001 275.1251953125L172.5796875000001 254.6173828125C173.7240234375001 253.473046875 173.7240234375001 251.61796875 172.5796875000001 250.47421875L51.5976562500001 129.4921875L67.9646484375001 113.1275390625L188.9472656250001 234.1072265625C190.0904296875001 235.2509765625 191.9466796875001 235.2509765625 193.0898437500001 234.1072265625L213.5976562500001 213.5994140625C214.7419921875001 212.455078125 214.7419921875001 210.6 213.5976562500001 209.45625L92.6173828125001 88.47421875L108.9820312500001 72.1095703125L229.9623046875001 193.0916015625C230.5119140625001 193.6412109375 231.2566406250001 193.9494140625 232.0335937500001 193.9494140625S233.5558593750002 193.640625 234.1048828125002 193.0916015625L254.6150390625002 172.5814453125C255.1646484375001 172.0318359375 255.4734375000002 171.287109375 255.4734375000002 170.5095703125S255.1652343750002 168.9873046875 254.6150390625002 168.4376953125L133.6330078125001 47.45859375L150.0000000000002 31.08984375L270.9826171875002 152.07421875C272.1257812500002 153.21796875 273.9820312500002 153.21796875 275.1251953125002 152.07421875C276.2695312500001 150.9298828125 276.2695312500001 149.0748046875 275.1251953125002 147.9310546875L152.0712890625001 24.8748046875C151.5222656250001 24.3251953125 150.7769531250001 24.01640625 150.0000000000001 24.01640625z" />
    <glyph glyph-name="025-geometric-1"
      unicode="&#xF119;"
      horiz-adv-x="300" d="M224.8482421875 39.9099609375C223.8837890625 39.8337890625 222.90234375 40.2380859375 222.2859375 41.353125L218.2974609375 48.57421875H70.8498046875C69.23203125 48.57421875 67.9201171875 49.885546875 67.9201171875 51.50390625S69.23203125 54.43359375 70.8498046875 54.43359375H215.0607421875L203.7328125 74.94140625H55.0294921875C53.41171875 74.94140625 52.0998046875 76.252734375 52.0998046875 77.87109375S53.41171875 80.80078125 55.0294921875 80.80078125H200.4966796875L189.16875 101.30859375H39.2091796875C37.59140625 101.30859375 36.2794921875 102.619921875 36.2794921875 104.23828125S37.59140625 107.16796875 39.2091796875 107.16796875H185.9314453125L174.603515625 127.67578125S26.272265625 127.67578125 26.075390625 127.67578125C23.8330078125 127.67578125 22.339453125 130.2140625 23.5318359375 132.1435546875L98.7087890625 258.6650390625C99.535546875 260.0554687500001 101.3326171875 260.5130859375 102.72421875 259.6869140625C104.115234375 258.8601562500001 104.5728515625 257.0625 103.74609375 255.6714843750001L31.17421875 133.53515625H58.61015625L130.7484375 258.6316406250001C131.5564453125 260.033203125 133.34765625 260.51484375 134.7498046875 259.70625S136.632421875 257.105859375 135.8244140625 255.7048828125L65.3748046875 133.53515625H87.6498046875L162.8390625 258.6773437500001C163.6728515625 260.0642578125001 165.472265625 260.5130859375 166.8591796875 259.6798828125S168.694921875 257.0466796875001 167.86171875 255.659765625L94.4853515625 133.53515625H119.2951171875S194.778515625 258.4728515625 194.8775390625 258.6363281250001C196.0189453125 260.5265625 198.891796875 260.544140625 199.974609375 258.5906250000001L276.49453125 126.6369140625001C277.306640625 125.2371093750001 276.8296875000001 123.4447265625001 275.4298828125 122.633203125C274.0294921875 121.8205078125 272.2376953125 122.2986328125 271.426171875 123.6978515625L197.3607421875 251.4175781250001L184.8861328125 230.7697265625L259.780078125 99.01171875C260.5798828125 97.60546875 260.087109375 95.8166015625 258.680859375 95.0173828125C257.2728515625 94.217578125 255.4857421875 94.7103515625 254.6865234375 96.1166015625L181.4138671875 225.0216796875L169.0306640625 204.526171875L243.47578125 71.390625C244.265625 69.978515625 243.760546875 68.1931640625 242.3484375 67.4033203125C240.9345703125 66.6123046875 239.1509765625 67.119140625 238.3611328125 68.5306640625L165.5443359375 198.755859375L153.263671875 178.4291015625S227.2828125 44.428125 227.4158203125 44.1873046875C228.582421875 42.0755859375 226.749609375 40.0599609375 224.8482421875 39.9099609375zM126.14765625 133.5662109375H171.375L149.7744140625 172.6716796875z" />
    <glyph glyph-name="026-geometric-2"
      unicode="&#xF11A;"
      horiz-adv-x="300" d="M23.4375 36.328125C22.393359375 36.328125 21.427734375 36.8841796875 20.9033203125 37.787109375C20.37890625 38.690625 20.375390625 39.8044921875 20.893359375 40.7109375L147.455859375 262.1953125C147.97734375 263.108203125 148.9482421875 263.671875 149.9994140625 263.671875S152.021484375 263.1087890625 152.54296875 262.1953125L279.10546875 40.7109375C279.6240234375 39.8044921875 279.619921875 38.690625 279.0955078125 37.787109375C278.57109375 36.8841796875 277.6060546875 36.328125 276.5619140625 36.328125zM254.5294921875 42.1875H271.5140625L150 254.837109375L28.4859375 42.1875H45.47109375L147.4587890625 220.0119140625C147.9814453125 220.9224609375 148.9505859375 221.484375 150 221.484375S152.019140625 220.923046875 152.5412109375 220.0119140625zM230.79375 42.1875H247.77421875L150 212.666015625L52.22578125 42.1875H69.2068359375L147.462890625 177.8314453125C147.9861328125 178.7384765625 148.953515625 179.296875 150.0005859375 179.296875S152.0150390625 178.737890625 152.53828125 177.8314453125zM207.05390625 42.1875H224.0291015625L150 170.5048828125L75.9708984375 42.1875H92.94609375L147.4693359375 135.65625C147.9943359375 136.55625 148.958203125 137.109375 150 137.109375S152.0056640624999 136.55625 152.5306640624999 135.65625zM183.2994140625 42.1875H200.2705078125L150 128.3654296875L99.7294921875 42.1875H116.7005859375L147.4875 93.49921875C148.0171875 94.381640625 148.9705078125 94.921875 150 94.921875C151.02890625 94.921875 151.9828125 94.381640625 152.5119140625 93.49921875zM123.5337890625 42.1875H176.4662109375L150 86.298046875z" />
    <glyph glyph-name="027-geometric-3"
      unicode="&#xF11B;"
      horiz-adv-x="300" d="M150 28.41796875C148.3822265625 28.41796875 147.0703125 29.729296875 147.0703125 31.34765625V268.65234375C147.0703125 270.2701171875 148.3822265625 271.58203125 150 271.58203125C151.618359375 271.58203125 152.9296875 270.2701171875 152.9296875 268.65234375V31.34765625C152.9296875 29.729296875 151.618359375 28.41796875 150 28.41796875zM168.45703125 49.51171875C166.838671875 49.51171875 165.52734375 50.823046875 165.52734375 52.44140625V131.54296875C165.52734375 133.161328125 166.838671875 134.47265625 168.45703125 134.47265625H247.55859375C249.176953125 134.47265625 250.48828125 133.161328125 250.48828125 131.54296875S249.176953125 128.61328125 247.55859375 128.61328125H171.38671875V52.44140625C171.38671875 50.823046875 170.075390625 49.51171875 168.45703125 49.51171875zM131.54296875 49.51171875C129.9251953125 49.51171875 128.61328125 50.823046875 128.61328125 52.44140625V128.61328125H52.44140625C50.8236328125 128.61328125 49.51171875 129.924609375 49.51171875 131.54296875S50.8236328125 134.47265625 52.44140625 134.47265625H131.54296875C133.1607421875 134.47265625 134.47265625 133.161328125 134.47265625 131.54296875V52.44140625C134.47265625 50.823046875 133.1607421875 49.51171875 131.54296875 49.51171875zM186.9140625 62.6953125C185.295703125 62.6953125 183.984375 64.006640625 183.984375 65.625V110.44921875C183.984375 112.067578125 185.295703125 113.37890625 186.9140625 113.37890625H231.73828125C233.356640625 113.37890625 234.66796875 112.067578125 234.66796875 110.44921875S233.356640625 107.51953125 231.73828125 107.51953125H189.84375V65.625C189.84375 64.006640625 188.532421875 62.6953125 186.9140625 62.6953125zM110.44921875 65.33203125C108.8314453125 65.33203125 107.51953125 66.643359375 107.51953125 68.26171875V110.15625H65.625C64.0072265625 110.15625 62.6953125 111.467578125 62.6953125 113.0859375S64.0072265625 116.015625 65.625 116.015625H110.44921875C112.0669921875 116.015625 113.37890625 114.704296875 113.37890625 113.0859375V68.26171875C113.37890625 66.643359375 112.0669921875 65.33203125 110.44921875 65.33203125zM268.65234375 147.0703125H168.459375C166.841015625 147.0703125 165.5296875 148.381640625 165.5296875 150C165.5296875 151.6177734375 166.841015625 152.9296875 168.459375 152.9296875H268.65234375C270.270703125 152.9296875 271.58203125 151.6177734375 271.58203125 150C271.58203125 148.381640625 270.270703125 147.0703125 268.65234375 147.0703125zM131.540625 147.0703125H31.34765625C29.7298828125 147.0703125 28.41796875 148.381640625 28.41796875 150C28.41796875 151.6177734375 29.7298828125 152.9296875 31.34765625 152.9296875H131.540625C133.1583984375 152.9296875 134.4703125 151.6177734375 134.4703125 150C134.4703125 148.381640625 133.158984375 147.0703125 131.540625 147.0703125zM247.55859375 165.52734375H168.45703125C166.838671875 165.52734375 165.52734375 166.8392578125 165.52734375 168.45703125V247.55859375C165.52734375 249.1763671875 166.838671875 250.48828125 168.45703125 250.48828125S171.38671875 249.1763671875 171.38671875 247.55859375V171.38671875H247.55859375C249.176953125 171.38671875 250.48828125 170.0748046875 250.48828125 168.45703125S249.176953125 165.52734375 247.55859375 165.52734375zM131.54296875 165.52734375H52.44140625C50.8236328125 165.52734375 49.51171875 166.8392578125 49.51171875 168.45703125S50.8236328125 171.38671875 52.44140625 171.38671875H128.61328125V247.55859375C128.61328125 249.1763671875 129.9251953125 250.48828125 131.54296875 250.48828125S134.47265625 249.1763671875 134.47265625 247.55859375V168.45703125C134.47265625 166.8392578125 133.1607421875 165.52734375 131.54296875 165.52734375zM234.375 183.984375H189.55078125C187.932421875 183.984375 186.62109375 185.2962890625 186.62109375 186.9140625V231.73828125C186.62109375 233.3560546875 187.932421875 234.66796875 189.55078125 234.66796875S192.48046875 233.3560546875 192.48046875 231.73828125V189.84375H234.375C235.993359375 189.84375 237.3046875 188.5318359375 237.3046875 186.9140625S235.993359375 183.984375 234.375 183.984375zM113.0859375 186.62109375H68.26171875C66.6439453125 186.62109375 65.33203125 187.9330078125 65.33203125 189.55078125S66.6439453125 192.48046875 68.26171875 192.48046875H110.15625V234.375C110.15625 235.9927734375 111.4681640625 237.3046875 113.0859375 237.3046875S116.015625 235.9927734375 116.015625 234.375V189.55078125C116.015625 187.9330078125 114.7037109375 186.62109375 113.0859375 186.62109375z" />
    <glyph glyph-name="028-geometric-4"
      unicode="&#xF11C;"
      horiz-adv-x="300" d="M208.0107421875 41.6009765625C207.9919921875 41.6009765625 207.9732421875 41.6009765625 207.95390625 41.6015625C207.95390625 41.6015625 92.2880859375 41.6015625 92.0466796875 41.6015625C90.965625 41.6015625 89.9572265625 42.1564453125 89.4298828125 43.1103515625L28.808203125 148.53984375C28.2884765625 149.4439453125 28.2884765625 150.5560546875 28.808203125 151.46015625C28.808203125 151.46015625 89.3326171875 256.7203125 89.4298828125 256.8896484375C89.9724609375 257.8330078125 90.9533203125 258.40546875 92.04609375 258.3984375H207.9533203125C209.0314453125 258.3984375 210.0451171875 257.837109375 210.5701171875 256.8896484375L271.1923828125 151.46015625C271.712109375 150.5560546875 271.712109375 149.4439453125 271.1923828125 148.53984375C271.1923828125 148.53984375 210.685546875 43.311328125 210.5701171875 43.1109375C210.0427734375001 42.193359375 209.0753906250001 41.6009765625 208.0107421875 41.6009765625zM96.9474609375 47.4609375H203.053125L175.82109375 96.97265625H124.1783203125zM182.508984375 96.97265625L208.0646484375 50.5072265625L234.7822265625 96.97265625zM65.2177734375 96.97265625L91.9353515625 50.5072265625L117.491015625 96.97265625zM179.286328125 102.83203125H234.57890625L179.73984375 197.9935546875L153.343359375 150zM127.4009765625 102.83203125H172.5984375L150 143.9208984375zM65.4216796875 102.83203125H120.7142578125L146.656640625 150L120.26015625 197.9935546875zM183.0427734375 203.9982421875L239.74453125 105.603515625L265.2732421875 150L208.0646484375 249.4927734375zM34.72734375 150L60.25546875 105.6029296875L116.9572265625 203.99765625L91.9353515625 249.4921875zM123.6814453125 203.930859375L150 156.0791015625L176.3185546875 203.930859375L150 249.601171875zM155.0701171875 252.5390625L179.6208984375 209.935546875L203.053125 252.5390625zM96.9474609375 252.5390625L120.3791015625 209.935546875L144.93046875 252.5390625z" />
    <glyph glyph-name="029-geometric-5"
      unicode="&#xF11D;"
      horiz-adv-x="300" d="M149.99765625 27.1013671875C149.5189453125 27.1013671875 149.0408203125 27.216796875 148.611328125 27.4482421875L45.779296875 82.8193359375C44.830078125 83.3302734375 44.2388671875 84.32109375 44.2388671875 85.3986328125C44.2388671875 85.3986328125 44.2388671875 206.60859375 44.2388671875 206.635546875C44.2388671875 207.636328125 44.736328125 208.6306640625 45.6328125 209.1826171875L148.46484375 272.4638671875C149.4064453125 273.043359375 150.594140625 273.0439453125 151.5357421875 272.4638671875L254.3677734375 209.1826171875C255.242578125 208.644140625 255.779296875 207.6609375 255.7623046875 206.635546875V85.3986328125C255.7623046875 84.3205078125 255.1705078125 83.3302734375 254.2212890625 82.8193359375L151.4279296875 27.46875C150.98671875 27.223828125 150.4921875 27.1013671875 149.99765625 27.1013671875zM152.9296875 149.5669921875V34.932421875L181.34765625 50.2341796875V164.86875zM50.09765625 87.1482421875L147.0703125 34.932421875V70.625390625C146.7708984375 70.68984375 146.4767578125 70.8029296875 146.1984375 70.967578125L50.09765625 127.7267578125zM187.20703125 168.0240234375V53.389453125L215.625 68.6912109375V183.32578125zM221.484375 186.4810546875V71.846484375L249.90234375 87.1482421875V201.7828125zM50.09765625 134.5318359375L147.0703125 77.2576171875V110.049609375L50.09765625 167.279296875zM50.09765625 174.083203125L147.0703125 116.853515625V149.5669921875L50.09765625 201.7828125zM121.791796875 169.8333984375L150 154.644140625L246.966796875 206.85703125L218.4896484375 224.38125zM87.4095703125 188.3466796875L115.68984375 173.11875L212.7861328125 227.8916015625L184.2451171875 245.4556640625zM53.033203125 206.85703125L81.3796875 191.593359375L178.6001953125 248.9291015625L150 266.52890625z" />
    <glyph glyph-name="030-geometric-shapes"
      unicode="&#xF11E;"
      horiz-adv-x="300" d="M150 29.736328125C82.959375 29.736328125 28.41796875 84.277734375 28.41796875 151.318359375C28.41796875 152.9361328125 29.7298828125 154.248046875 31.34765625 154.248046875H268.65234375C270.270703125 154.248046875 271.58203125 152.9361328125 271.58203125 151.318359375C271.58203125 84.277734375 217.040625 29.736328125 150 29.736328125zM34.3142578125 148.388671875C35.87109375 85.9248046875 87.1681640625 35.595703125 150 35.595703125S264.12890625 85.9248046875 265.686328125 148.388671875H239.89453125C238.3423828125 100.14609375 198.6134765625 61.376953125 150 61.376953125C101.387109375 61.376953125 61.6576171875 100.14609375 60.10546875 148.388671875zM65.968359375 148.388671875C67.5193359375 103.3787109375 104.619140625 67.236328125 150 67.236328125S232.4806640625 103.3787109375 234.031640625 148.388671875H213.5080078125C211.97109375 114.6884765625 184.0734375 87.744140625 150 87.744140625C115.9271484375 87.744140625 88.02890625 114.6884765625 86.492578125 148.388671875zM92.358984375 148.388671875C93.8900390625 117.92109375 119.1591796875 93.603515625 150.0005859375 93.603515625S206.110546875 117.92109375 207.6421875 148.388671875H192.380859375C190.8708984375 126.326953125 172.4396484375 108.837890625 150.0005859375 108.837890625C127.562109375 108.837890625 109.130859375 126.326953125 107.6197265625 148.388671875zM113.494921875 148.388671875C114.9919921875 129.56015625 130.79296875 114.697265625 150 114.697265625S185.0080078125 129.56015625 186.505078125 148.388671875H176.50078125C175.0376953125 135.0609375 163.7109375 124.658203125 150 124.658203125S124.962890625 135.0609375 123.4998046875 148.388671875zM129.4048828125 148.388671875C130.8328125 138.301171875 139.524609375 130.517578125 150 130.517578125S169.1671875 138.301171875 170.5951171875 148.388671875zM237.01171875 177.392578125H62.98828125C61.3705078125 177.392578125 60.05859375 178.7044921875 60.05859375 180.322265625S61.3705078125 183.251953125 62.98828125 183.251953125H237.01171875C238.630078125 183.251953125 239.94140625 181.9400390625 239.94140625 180.322265625S238.630078125 177.392578125 237.01171875 177.392578125zM210.64453125 206.396484375H89.35546875C87.7376953125 206.396484375 86.42578125 207.7083984375 86.42578125 209.326171875S87.7376953125 212.255859375 89.35546875 212.255859375H210.64453125C212.262890625 212.255859375 213.57421875 210.9439453125 213.57421875 209.326171875S212.262890625 206.396484375 210.64453125 206.396484375zM189.55078125 235.400390625H110.44921875C108.8314453125 235.400390625 107.51953125 236.7123046875 107.51953125 238.330078125S108.8314453125 241.259765625 110.44921875 241.259765625H189.55078125C191.169140625 241.259765625 192.48046875 239.9478515625 192.48046875 238.330078125S191.169140625 235.400390625 189.55078125 235.400390625zM173.73046875 264.404296875H126.26953125C124.6517578125 264.404296875 123.33984375 265.7162109375 123.33984375 267.333984375S124.6517578125 270.263671875 126.26953125 270.263671875H173.73046875C175.348828125 270.263671875 176.66015625 268.9517578125 176.66015625 267.333984375S175.348828125 264.404296875 173.73046875 264.404296875z" />
    <glyph glyph-name="031-geometric-6"
      unicode="&#xF11F;"
      horiz-adv-x="300" d="M268.65 37.6716796875H31.3658203125C31.346484375 37.672265625 31.327734375 37.6716796875 31.292578125 37.672265625C29.1228515625 37.7056640625 27.7453125 40.190625 28.812890625 42.0568359375C28.812890625 42.0568359375 147.289453125 260.579296875 147.4048828125 260.7931640625C148.49765625 262.8087890625 151.5416015625 262.871484375 152.6115234375 260.7931640625C152.6115234375 260.7931640625 271.0787109375 42.28828125 271.203515625 42.0568359375C272.2294921875 40.16484375 270.8994140625 37.716796875 268.712109375 37.672265625C268.695703125 37.6751953125 268.676953125 37.6716796875 268.65 37.6716796875zM154.9798828125 43.5310546875H261.094921875L190.5697265625 107.787890625zM38.921484375 43.5310546875H145.032421875L109.4009765625 107.745703125zM113.8517578125 111.8009765625L147.078515625 51.919921875V142.074609375zM152.937890625 142.074609375V51.9380859375L186.1177734375 111.8437500000001zM193.487109375 113.0560546875001L257.8283203125 54.4335937500001L209.940234375 142.761328125zM90.024609375 142.6652343750001L42.188671875 54.4335937500001L106.480078125 113.0103515625001zM94.99921875 145.7771484375001L110.9302734375 117.0656250000001L142.442578125 145.7771484375001zM157.573828125 145.7771484375001L189.03515625 117.1119140625001L204.91171875 145.7771484375001zM152.937890625 151.6365234375001H205.1279296875L152.937890625 247.8984375000001zM94.8884765625 151.6365234375001H147.078515625V247.8984375000001z" />
    <glyph glyph-name="032-close-button"
      unicode="&#xF120;"
      horiz-adv-x="300" d="M300 270L270 300L150 180L30 300L0 270L120 150L0 30L30 0L150 120L270 0L300 30L180 150z" />
    <glyph glyph-name="033-compare"
      unicode="&#xF121;"
      horiz-adv-x="300" d="M12.5 200.0005C12.5 203.31575 13.817 206.495125 16.161125 208.839375C18.505375 211.1835 21.68475 212.5005 25 212.5005H119.825L91.1625 241.163C89.968625 242.316125 89.016375 243.695375 88.36125 245.2205C87.706125 246.7455 87.36125 248.3857500000001 87.346875 250.0455S87.64875 253.35125 88.27725 254.887375C88.90575 256.423625 89.833875 257.81925 91.0075 258.9930000000001C92.18125 260.166625 93.576875 261.0947500000001 95.113125 261.72325C96.64925 262.3517500000001 98.29525 262.6681250000001 99.955 262.6536250000001C101.61475 262.63925 103.255 262.294375 104.78 261.63925C106.305125 260.984125 107.684375 260.031875 108.8375 258.838L158.8375 208.838C161.18125 206.493875 162.4975 203.315125 162.4975 200.0005000000001C162.4975 196.686 161.18125 193.507125 158.8375 191.1630000000001L108.8375 141.1625000000001C107.684375 139.9687500000001 106.305125 139.0162500000001 104.78 138.3612500000001C103.255 137.7062500000001 101.61475 137.3612500000001 99.955 137.3475000000001C98.29525 137.3325000000001 96.64925 137.6487500000001 95.113125 138.2775C93.576875 138.90625 92.18125 139.8350000000001 91.0075 141.0075000000001C89.833875 142.18125 88.90575 143.5775 88.27725 145.1137500000001S87.3325 148.2962500000001 87.346875 149.9550000000001C87.36125 151.6150000000001 87.706125 153.2550000000001 88.36125 154.78S89.968625 157.685 91.1625 158.8375L119.825 187.5005000000001H25C21.68475 187.5005000000001 18.505375 188.8175000000001 16.161125 191.1616250000001C13.817 193.5058750000001 12.5 196.6852500000001 12.5 200.0005000000001zM275 112.5H180.175L208.8375 141.1625C211.115 143.52 212.375 146.6775 212.34625 149.955S211.0025 156.36875 208.685 158.68625S203.2325 162.3175 199.955 162.34625S193.52 161.115 191.1624999999999 158.8375L141.1625 108.8375C138.81875 106.49375 137.5025 103.315 137.5025 100C137.5025 96.68625 138.81875 93.5075 141.1625 91.1625L191.1624999999999 41.1625C193.5199999999999 38.88625 196.6775 37.62625 199.955 37.655C203.2325 37.6825 206.3675 38.9975 208.685 41.315S212.3175 46.7675 212.34625 50.045S211.115 56.48 208.8375 58.8375L180.175 87.5H275C278.315 87.5 281.495 88.8175 283.83875 91.16125C286.1825 93.50625 287.5 96.685 287.5 100C287.5 103.31625 286.1825 106.495 283.83875 108.83875C281.495 111.18375 278.315 112.5 275 112.5z" />
    <glyph glyph-name="034-compare-1"
      unicode="&#xF122;"
      horiz-adv-x="300" d="M25 187.5H119.825L91.1625 158.8375A12.5 12.5 0 1 1 108.8375 141.1625L158.8375 191.1625A12.5 12.5 0 0 1 158.8375 208.8375L108.8375 258.8375000000001A12.5 12.5 0 1 1 91.1625 241.1625L119.825 212.5H25A12.5 12.5 0 0 1 25 187.5zM275 112.5H180.175L208.8375 141.1625A12.5 12.5 0 0 1 191.1625 158.8375L141.1625 108.8375A12.5 12.5 0 0 1 141.1625 91.1625L191.1625 41.1625A12.5 12.5 0 0 1 208.8375 58.8375L180.175 87.5H275A12.5 12.5 0 0 1 275 112.5z" />
    <glyph glyph-name="035-info"
      unicode="&#xF123;"
      horiz-adv-x="300" d="M162.4992369140625 225C162.4992369140625 218.096923828125 156.903076171875 212.5007630859375 150 212.5007630859375S137.5007630859375 218.096923828125 137.5007630859375 225S143.096923828125 237.4992369140625 150 237.4992369140625S162.4992369140625 231.903076171875 162.4992369140625 225zM162.4992369140625 225M150 62.5007630859375C144.8249818359375 62.5007630859375 140.625 66.700744921875 140.625 71.8757630859375V168.75H128.1257630859375C122.950744921875 168.75 118.7507630859375 172.9499818359375 118.7507630859375 178.125S122.950744921875 187.5 128.1257630859375 187.5H150C155.1750181640625 187.5 159.375 183.3000181640625 159.375 178.125V71.8757630859375C159.375 66.700744921875 155.1750181640625 62.5007630859375 150 62.5007630859375zM150 62.5007630859375M150 0C67.286682421875 0 0 67.286682421875 0 150S67.286682421875 300 150 300S300 232.713317578125 300 150S232.713317578125 0 150 0zM150 281.25C77.6252748046875 281.25 18.75 222.3747251953125 18.75 150S77.6252748046875 18.75 150 18.75S281.25 77.6252748046875 281.25 150S222.3747251953125 281.25 150 281.25zM150 281.25M178.125 62.5007630859375H121.875C116.6999818359375 62.5007630859375 112.5 66.700744921875 112.5 71.8757630859375S116.6999818359375 81.2507630859375 121.875 81.2507630859375H178.125C183.3000181640625 81.2507630859375 187.5 77.05078125 187.5 71.8757630859375S183.3000181640625 62.5007630859375 178.125 62.5007630859375zM178.125 62.5007630859375" />
    <glyph glyph-name="036-check"
      unicode="&#xF124;"
      horiz-adv-x="300" d="M150 0C67.286682421875 0 0 67.286682421875 0 150S67.286682421875 300 150 300S300 232.713317578125 300 150S232.713317578125 0 150 0zM150 281.25C77.6252748046875 281.25 18.75 222.3747251953125 18.75 150S77.6252748046875 18.75 150 18.75S281.25 77.6252748046875 281.25 150S222.3747251953125 281.25 150 281.25zM150 281.25M135.9375 100.0007630859375C133.5365296875 100.0007630859375 131.137848046875 100.9117125 129.311370703125 102.7496337890625L88.6871337890625 143.373870703125C85.0250244140625 147.03826875 85.0250244140625 152.9754638671875 88.6871337890625 156.6375732421875S98.28643828125 160.2996826171875 101.950836328125 156.6375732421875L135.9489439453125 122.6371763671875L210.57586640625 197.26181015625C214.23797578125 200.92391953125 220.1751708984375 200.92391953125 223.8372802734375 197.26181015625S227.4993896484375 187.66250625 223.8372802734375 184.000396875L142.5865171875 102.7496337890625C140.737151953125 100.9117125 138.3384703125 100.0007630859375 135.9375 100.0007630859375zM135.9375 100.0007630859375" />
    <glyph glyph-name="037-remove"
      unicode="&#xF125;"
      horiz-adv-x="300" d="M150 0C67.286682421875 0 0 67.286682421875 0 150S67.286682421875 300 150 300S300 232.713317578125 300 150S232.713317578125 0 150 0zM150 281.25C77.6252748046875 281.25 18.75 222.3747251953125 18.75 150S77.6252748046875 18.75 150 18.75S281.25 77.6252748046875 281.25 150S222.3747251953125 281.25 150 281.25zM150 281.25M103.60107421875 94.22607421875C101.20010390625 94.22607421875 98.79913359375 95.13702421875 96.974944921875 96.974944921875C93.312835546875 100.637054296875 93.312835546875 106.5742494140625 96.974944921875 110.2363587890625L189.7865296875 203.050231640625C193.450927734375 206.712341015625 199.388122265625 206.712341015625 203.050231640625 203.050231640625S206.712341015625 193.450927734375 203.050231640625 189.7865296875L110.2363587890625 96.974944921875C108.3869935546875 95.13702421875 105.9883119140625 94.22607421875 103.60107421875 94.22607421875zM103.60107421875 94.22607421875M196.39892578125 94.22607421875C194.000244140625 94.22607421875 191.599273828125 95.13702421875 189.77508515625 96.974944921875L96.9635009765625 189.77508515625C93.2991029296875 193.43719453125 93.2991029296875 199.3743896484375 96.9635009765625 203.0364990234375C100.6256103515625 206.7008970703125 106.56280546875 206.7008970703125 110.22491484375 203.0364990234375L203.0364990234375 110.22491484375C206.7008970703125 106.56280546875 206.7008970703125 100.6256103515625 203.0364990234375 96.9635009765625C201.20086640625 95.13702421875 198.79989609375 94.22607421875 196.39892578125 94.22607421875zM196.39892578125 94.22607421875" />
    <glyph glyph-name="038-warning"
      unicode="&#xF126;"
      horiz-adv-x="300" d="M162.4992369140625 75C162.4992369140625 68.096923828125 156.903076171875 62.5007630859375 150 62.5007630859375S137.5007630859375 68.096923828125 137.5007630859375 75S143.096923828125 87.4992369140625 150 87.4992369140625S162.4992369140625 81.903076171875 162.4992369140625 75zM162.4992369140625 75M150 112.5C144.8249818359375 112.5 140.625 116.6999818359375 140.625 121.875V228.1242369140625C140.625 233.299255078125 144.8249818359375 237.4992369140625 150 237.4992369140625S159.375 233.299255078125 159.375 228.1242369140625V121.875C159.375 116.6999818359375 155.1750181640625 112.5 150 112.5zM150 112.5M150 0C67.286682421875 0 0 67.286682421875 0 150S67.286682421875 300 150 300S300 232.713317578125 300 150S232.713317578125 0 150 0zM150 281.25C77.6252748046875 281.25 18.75 222.3747251953125 18.75 150S77.6252748046875 18.75 150 18.75S281.25 77.6252748046875 281.25 150S222.3747251953125 281.25 150 281.25zM150 281.25" />
    <glyph glyph-name="039-question"
      unicode="&#xF127;"
      horiz-adv-x="300" d="M162.4992369140625 75C162.4992369140625 68.096923828125 156.903076171875 62.5007630859375 150 62.5007630859375S137.5007630859375 68.096923828125 137.5007630859375 75S143.096923828125 87.4992369140625 150 87.4992369140625S162.4992369140625 81.903076171875 162.4992369140625 75zM162.4992369140625 75M150 0C67.286682421875 0 0 67.286682421875 0 150S67.286682421875 300 150 300S300 232.713317578125 300 150S232.713317578125 0 150 0zM150 281.25C77.6252748046875 281.25 18.75 222.3747251953125 18.75 150S77.6252748046875 18.75 150 18.75S281.25 77.6252748046875 281.25 150S222.3747251953125 281.25 150 281.25zM150 281.25M150 115.6242369140625C144.8249818359375 115.6242369140625 140.625 119.82421875 140.625 124.9992369140625V137.624358984375C140.625 149.52392578125 148.1758119140625 160.1875306640625 159.4001771484375 164.149475390625C174.33700546875 169.411468359375 184.3757630859375 185.325622265625 184.3757630859375 196.875C184.3757630859375 215.8378599609375 168.9628599609375 231.2507630859375 150 231.2507630859375S115.6242369140625 215.8378599609375 115.6242369140625 196.875C115.6242369140625 191.6999818359375 111.424255078125 187.5 106.2492369140625 187.5S96.8742369140625 191.6999818359375 96.8742369140625 196.875C96.8742369140625 226.1627197265625 120.700836328125 250.0007630859375 150 250.0007630859375S203.1257630859375 226.1627197265625 203.1257630859375 196.875C203.1257630859375 176.023864453125 186.6622921875 153.88641328125 165.63720703125 146.461487109375C161.888122265625 145.14999375 159.375 141.5885923828125 159.375 137.6129150390625V124.9992369140625C159.375 119.82421875 155.1750181640625 115.6242369140625 150 115.6242369140625zM150 115.6242369140625" />
    <glyph glyph-name="040-user-interface"
      unicode="&#xF128;"
      horiz-adv-x="300" d="M223.265625 9.375H76.734375C39.590625 9.375 9.375 39.590625 9.375 76.725V223.275C9.375 260.409375 39.590625 290.625 76.734375 290.625H223.275C260.409375 290.625 290.6250000000001 260.409375 290.6250000000001 223.275V76.725C290.6250000000001 39.590625 260.4093750000001 9.375 223.2656250000001 9.375zM76.734375 271.875C49.93125 271.875 28.125 250.06875 28.125 223.275V76.725C28.125 49.93125 49.93125 28.1249999999999 76.734375 28.1249999999999H223.275C250.06875 28.1249999999999 271.8750000000001 49.93125 271.8750000000001 76.725V223.275C271.8750000000001 250.06875 250.06875 271.875 223.2656250000001 271.875zM135.9375 103.125C112.678125 103.125 93.75 124.153125 93.75 150V187.5C93.75 192.646875 97.978125 196.875 103.125 196.875S112.5 192.646875 112.5 187.5V150C112.5 134.49375 123.009375 121.875 135.9375 121.875S159.375 134.49375 159.375 150V187.5C159.375 192.675 163.565625 196.875 168.75 196.875S178.125 192.675 178.125 187.5V150C178.125 124.153125 159.196875 103.125 135.9375 103.125zM196.875 103.125C191.728125 103.125 187.5 107.353125 187.5 112.5V187.5C187.5 192.646875 191.728125 196.875 196.875 196.875S206.25 192.646875 206.25 187.5V112.5C206.25 107.353125 202.021875 103.125 196.875 103.125z" />
    <glyph glyph-name="041-smartphone"
      unicode="&#xF129;"
      horiz-adv-x="300" d="M216.9375 290.625H83.0625C63.103125 290.625 46.875 274.396875 46.875 254.4375V45.5625C46.875 25.603125 63.103125 9.375 83.0625 9.375H216.9375C236.8875 9.375 253.125 25.603125 253.125 45.5625V254.4375C253.125 274.396875 236.896875 290.625 216.9375 290.625zM180.946875 271.875L175.74375 262.5H124.275L119.071875 271.875zM234.375 45.5625C234.375 35.953125 226.55625 28.125 216.9375 28.125H83.0625C73.44375 28.125 65.625 35.94375 65.625 45.5625V254.4375C65.625 264.05625 73.44375 271.875 83.0625 271.875H97.6125L110.55 248.578125C112.209375 245.596875 115.340625 243.75 118.753125 243.75H181.25625C184.659375 243.75 187.8000000000001 245.596875 189.459375 248.578125L202.3875000000001 271.875H216.9375C226.5562500000001 271.875 234.3750000000001 264.05625 234.3750000000001 254.4375zM159.375 46.875H140.625C135.45 46.875 131.25 51.075 131.25 56.25S135.45 65.625 140.625 65.625H159.375C164.55 65.625 168.75 61.425 168.75 56.25S164.55 46.875 159.375 46.875z" />
    <glyph glyph-name="042-chat"
      unicode="&#xF12A;"
      horiz-adv-x="300" d="M150 9.375C146.86875 9.375 143.94375 10.940625 142.2 13.546875L107.484375 65.625H67.734375C35.55 65.625 9.375 91.8 9.375 123.984375V232.265625C9.375 264.4500000000001 35.55 290.625 67.734375 290.625H232.275C264.45 290.625 290.625 264.4500000000001 290.625 232.265625V123.975C290.625 91.8 264.45 65.625 232.265625 65.625H192.515625L157.809375 13.55625C156.065625 10.9406250000001 153.140625 9.3750000000001 150 9.3750000000001zM67.734375 271.875C45.9 271.875 28.125 254.109375 28.125 232.265625V123.975C28.125 102.140625 45.9 84.375 67.734375 84.375H112.5C115.63125 84.375 118.55625 82.809375 120.3 80.203125L150 35.653125L179.690625 80.19375C181.434375 82.809375 184.359375 84.375 187.5 84.375H232.265625C254.1 84.375 271.875 102.140625 271.875 123.984375V232.265625C271.875 254.1093750000001 254.1 271.875 232.265625 271.875zM225 150C212.071875 150 201.5625 160.51875 201.5625 173.4375S212.071875 196.875 225 196.875S248.4375 186.35625 248.4375 173.4375S237.928125 150 225 150zM225 178.125C222.421875 178.125 220.3125 176.025 220.3125 173.4375S222.421875 168.75 225 168.75S229.6875 170.85 229.6875 173.4375S227.578125 178.125 225 178.125zM150 150C137.071875 150 126.5625 160.51875 126.5625 173.4375S137.071875 196.875 150 196.875S173.4375 186.35625 173.4375 173.4375S162.928125 150 150 150zM150 178.125C147.421875 178.125 145.3125 176.025 145.3125 173.4375S147.421875 168.75 150 168.75S154.6875 170.85 154.6875 173.4375S152.578125 178.125 150 178.125zM75 150C62.071875 150 51.5625 160.51875 51.5625 173.4375S62.071875 196.875 75 196.875S98.4375 186.35625 98.4375 173.4375S87.928125 150 75 150zM75 178.125C72.421875 178.125 70.3125 176.025 70.3125 173.4375S72.421875 168.75 75 168.75S79.6875 170.85 79.6875 173.4375S77.578125 178.125 75 178.125z" />
    <glyph glyph-name="043-script"
      unicode="&#xF12B;"
      horiz-adv-x="300" d="M278.125 37.5H21.875C9.8125 37.5 0 47.3125 0 59.375V228.125C0 240.1875 9.8125 250 21.875 250H278.125C290.1875 250 300 240.1875 300 228.125V59.375C300 47.3125 290.1875 37.5 278.125 37.5zM21.875 231.25C20.15 231.25 18.75 229.85 18.75 228.125V59.375C18.75 57.65 20.15 56.25 21.875 56.25H278.125C279.85 56.25 281.25 57.65 281.25 59.375V228.125C281.25 229.85 279.85 231.25 278.125 231.25zM290.625 81.25H9.375C4.2 81.25 0 85.45 0 90.625S4.2 100 9.375 100H290.625C295.8 100 300 95.8 300 90.625S295.8 81.25 290.625 81.25zM190.625 0H109.375C105.5875 0 102.1625 2.2875 100.7125 5.7875S100.0625 13.325 102.75 16C115.7625 29.0125 118.5625 47.9 118.5875 48.0875C119.2625 53.225 123.9875 56.8625 129.1 56.1625C134.2375 55.4875 137.85 50.775 137.175 45.65C137.075 44.9125 135.3375 32.325 127.875 18.7500000000001H171.9125C164.525 32.2625 162.6875 44.85 162.5875 45.5875C161.875 50.7125 165.45 55.45 170.5875 56.1625C175.7375 56.85 180.4375 53.3 181.1625 48.1875C181.25 47.6250000000001 184.0625 29.825 195.9625 17.0875C198.4 15.3875 200 12.575 200 9.3750000000001C200 4.2 195.8 1e-13 190.625 1e-13zM190.625 131.25C188.4625 131.25 186.3 131.9875 184.525 133.5125C180.6 136.8875 180.1375 142.8 183.5125 146.7375L197.025 162.5L183.5 178.275C180.125 182.2 180.5875 188.125 184.5125 191.5C188.45 194.875 194.3625 194.4125 197.7375 190.4875L216.4875 168.6125C219.5 165.1 219.5 159.925 216.4875 156.4L197.7375 134.525C195.8875 132.3625 193.2625 131.25 190.625 131.25zM109.375 131.25C106.7375 131.25 104.1125 132.3625 102.25 134.525L83.5 156.4C80.4875 159.9125 80.4875 165.0875 83.5 168.6125L102.25 190.4875C105.6125 194.425 111.5375 194.875 115.475 191.4875C119.4 188.1125 119.8625 182.2 116.4875 178.2625L102.975 162.5L116.5 146.725C119.875 142.8 119.4125 136.875 115.4875 133.5C113.7125 132 111.5375 131.25 109.375 131.25zM140.625 112.5C139.925 112.5 139.225 112.575 138.5125 112.7375C133.4625 113.9 130.325 118.9375 131.475 123.975L150.225 205.225C151.3875 210.275 156.4125 213.3625 161.4625 212.2625C166.5125 211.1 169.65 206.0625 168.5 201.025L149.75 119.775C148.7625 115.425 144.9 112.5 140.625 112.5z" />
    <glyph glyph-name="044-smartwatch"
      unicode="&#xF12C;"
      horiz-adv-x="300" d="M213.99375 243.459375L206.0625 283.0875C205.190625 287.475 201.346875 290.625 196.875 290.625H103.125C98.653125 290.625 94.809375 287.475 93.9375 283.0875L86.00625 243.459375C69.375 241.978125 56.25 228.13125 56.25 211.125V88.875C56.25 71.86875 69.375 58.021875 86.00625 56.540625L93.928125 16.9125C94.809375 12.525 98.653125 9.375 103.125 9.375H196.875C201.346875 9.375 205.190625 12.525 206.0625 16.9125L213.984375 56.540625C230.625 58.021875 243.75 71.86875 243.75 88.875V211.125C243.75 228.13125 230.625 241.978125 213.99375 243.459375zM110.8125 271.875H189.1875L194.8125 243.75H105.1875zM189.1875 28.125H110.8125L105.1875 56.25H194.821875zM225 88.875C225 81.225 218.775 75 211.125 75H206.25H93.75H88.875C81.225 75 75 81.225 75 88.875V211.125C75 218.775 81.225 225 88.875 225H93.75H206.25H211.125C218.775 225 225 218.775 225 211.125zM150 145.3125C165.50625 145.3125 178.125 157.93125 178.125 173.4375S165.50625 201.5625 150 201.5625S121.875 188.94375 121.875 173.4375S134.49375 145.3125 150 145.3125zM150 182.8125C155.165625 182.8125 159.375 178.603125 159.375 173.4375S155.165625 164.0625 150 164.0625S140.625 168.271875 140.625 173.4375S144.834375 182.8125 150 182.8125zM173.184375 135.9375H126.815625C113.746875 135.9375 103.125 125.315625 103.125 112.246875V107.8125C103.125 102.665625 107.353125 98.4375 112.5 98.4375S121.875 102.665625 121.875 107.8125V112.246875C121.875 114.975 124.0875 117.1875 126.815625 117.1875H173.184375C175.9125 117.1875 178.125 114.975 178.125 112.246875V107.8125C178.125 102.6375 182.325 98.4375 187.5 98.4375S196.875 102.6375 196.875 107.8125V112.246875C196.875 125.315625 186.253125 135.9375 173.184375 135.9375z" />
    <glyph glyph-name="045-lock"
      unicode="&#xF12D;"
      horiz-adv-x="300" d="M238.621875 206.25H225V215.625C225 256.978125 191.353125 290.625 150 290.625S75 256.978125 75 215.625V206.25H61.378125C43.040625 206.25 28.125 191.334375 28.125 172.996875V42.628125C28.125 24.290625 43.040625 9.3749999999999 61.378125 9.3749999999999H238.621875C256.959375 9.3749999999999 271.875 24.290625 271.875 42.628125V172.996875C271.875 191.334375 256.959375 206.25 238.621875 206.25zM93.75 215.625C93.75 246.646875 118.978125 271.875 150 271.875S206.25 246.646875 206.25 215.625V206.25H93.75zM253.125 42.628125C253.125 34.63125 246.61875 28.125 238.621875 28.125H61.378125C53.38125 28.125 46.875 34.63125 46.875 42.628125V172.996875C46.875 180.99375 53.38125 187.5 61.378125 187.5H84.375H215.625H238.621875C246.61875 187.5 253.125 180.99375 253.125 172.996875zM150 150C134.49375 150 121.875 137.38125 121.875 121.875C121.875 109.66875 129.740625 99.35625 140.625 95.475V65.625C140.625 60.45 144.825 56.25 150 56.25S159.375 60.45 159.375 65.625V95.475C170.259375 99.35625 178.125 109.66875 178.125 121.875C178.125 137.38125 165.50625 150 150 150zM150 112.5C144.834375 112.5 140.625 116.709375 140.625 121.875S144.834375 131.25 150 131.25S159.375 127.040625 159.375 121.875S155.165625 112.5 150 112.5z" />
    <glyph glyph-name="046-data"
      unicode="&#xF12E;"
      horiz-adv-x="300" d="M223.275 290.625H76.725C39.590625 290.625 9.375 260.409375 9.375 223.275V76.725C9.375 39.590625 39.590625 9.3749999999999 76.725 9.3749999999999H223.275C260.409375 9.3749999999999 290.625 39.5906249999999 290.625 76.725V223.275C290.625 260.409375 260.409375 290.625 223.275 290.625zM271.875 76.725C271.875 49.93125 250.06875 28.125 223.275 28.125H76.725C49.93125 28.125 28.125 49.93125 28.125 76.725V223.275C28.125 250.06875 49.93125 271.875 76.725 271.875H223.275C250.06875 271.875 271.875 250.06875 271.875 223.275zM215.625 98.4375V173.4375C215.625 178.6125 211.425 182.8125 206.25 182.8125S196.875 178.6125 196.875 173.4375V98.4375H159.375V210.9375C159.375 216.1125 155.175 220.3125 150 220.3125S140.625 216.1125 140.625 210.9375V98.4375H103.125V154.6875C103.125 159.8625 98.925 164.0625 93.75 164.0625S84.375 159.8625 84.375 154.6875V98.4375C79.2 98.4375 75 94.2375 75 89.0625S79.2 79.6875 84.375 79.6875H215.625C220.8 79.6875 225 83.8875 225 89.0625S220.8 98.4375 215.625 98.4375z" />
    <glyph glyph-name="047-briefcase"
      unicode="&#xF12F;"
      horiz-adv-x="300" d="M243.496875 234.375H225V251.625C225 273.13125 207.50625 290.625 186.009375 290.625H113.990625C92.49375 290.625 75 273.13125 75 251.625V234.375H56.503125C30.515625 234.375 9.375 213.234375 9.375 187.246875V56.5125C9.375 30.515625 30.515625 9.375 56.503125 9.375H243.4875C269.484375 9.375 290.625 30.515625 290.625 56.503125V187.246875C290.625 213.234375 269.484375 234.375 243.496875 234.375zM93.75 251.625C93.75 262.790625 102.834375 271.875 113.990625 271.875H186.009375C197.165625 271.875 206.25 262.790625 206.25 251.625V234.375H93.75zM56.503125 215.625H84.375H215.625H243.496875C259.14375 215.625 271.875 202.89375 271.875 187.246875V159.375H187.5H112.5H28.125V187.246875C28.125 202.89375 40.85625 215.625 56.503125 215.625zM178.125 140.625C178.125 125.11875 165.50625 112.5 150 112.5S121.875 125.11875 121.875 140.625zM243.496875 28.125H56.503125C40.85625 28.125 28.125 40.85625 28.125 56.503125V140.625H103.125C103.125 114.778125 124.153125 93.75 150 93.75S196.875 114.778125 196.875 140.625H271.875V56.503125C271.875 40.85625 259.14375 28.125 243.496875 28.125z" />
    <glyph glyph-name="048-copy"
      unicode="&#xF130;"
      horiz-adv-x="300" d="M223.275 9.375H76.725C39.590625 9.375 9.375 39.590625 9.375 76.725V223.275C9.375 260.409375 39.590625 290.625 76.725 290.625H223.275C260.409375 290.625 290.625 260.409375 290.625 223.275V76.725C290.625 39.590625 260.409375 9.375 223.275 9.375zM76.725 271.875C49.93125 271.875 28.125 250.06875 28.125 223.275V76.725C28.125 49.93125 49.93125 28.1249999999999 76.725 28.1249999999999H223.275C250.06875 28.1249999999999 271.875 49.93125 271.875 76.725V223.275C271.875 250.06875 250.06875 271.875 223.275 271.875zM200.86875 234.375H136.621875C123.328125 234.375 112.5 223.546875 112.5 210.24375V196.875H99.13125C85.828125 196.875 75 186.046875 75 172.74375V89.746875C75 76.453125 85.828125 65.625 99.13125 65.625H163.378125C176.671875 65.625 187.5 76.453125 187.5 89.75625V103.125H200.86875C214.171875 103.125 225 113.953125 225 127.25625V210.24375C225 223.546875 214.171875 234.375 200.86875 234.375zM168.75 89.75625C168.75 86.784375 166.340625 84.375 163.36875 84.375H99.121875C96.159375 84.375 93.75 86.784375 93.75 89.75625V172.753125C93.75 175.715625 96.159375 178.125 99.13125 178.125H163.378125C166.340625 178.125 168.75 175.715625 168.75 172.74375zM206.25 127.25625C206.25 124.284375 203.840625 121.875 200.86875 121.875H187.5V172.74375C187.5 186.046875 176.671875 196.875 163.36875 196.875H131.25V210.24375C131.25 213.215625 133.659375 215.625 136.63125 215.625H200.878125C203.840625 215.625 206.25 213.215625 206.25 210.24375z" />
    <glyph glyph-name="049-user"
      unicode="&#xF131;"
      horiz-adv-x="300" d="M223.275 290.625H76.725C39.590625 290.625 9.375 260.409375 9.375 223.275V76.725C9.375 39.590625 39.590625 9.3749999999999 76.725 9.3749999999999H223.275C260.409375 9.3749999999999 290.625 39.5906249999999 290.625 76.725V223.275C290.625 260.409375 260.409375 290.625 223.275 290.625zM28.125 223.275C28.125 250.06875 49.93125 271.875 76.725 271.875H223.275C250.06875 271.875 271.8750000000001 250.06875 271.8750000000001 223.275V76.725C271.8750000000001 74.315625 271.5000000000001 72 271.1625 69.675C243.1125 108.075 198.290625 131.25 150 131.25S56.8875 108.075 28.8375 69.675C28.5 72 28.125 74.315625 28.125 76.725zM223.275 28.125H76.725C60.4875 28.125 46.1625 36.20625 37.33125 48.478125C61.03125 88.078125 103.678125 112.5 150 112.5S238.9687500000001 88.078125 262.659375 48.478125C253.8375 36.20625 239.5125 28.125 223.275 28.125zM150 150C175.846875 150 196.875 171.028125 196.875 196.875S175.846875 243.75 150 243.75S103.125 222.721875 103.125 196.875S124.153125 150 150 150zM150 225C165.50625 225 178.125 212.38125 178.125 196.875S165.50625 168.75 150 168.75S121.875 181.36875 121.875 196.875S134.49375 225 150 225z" />
    <glyph glyph-name="050-file"
      unicode="&#xF132;"
      horiz-adv-x="300" d="M267.571875 131.25H262.5V267.35625C262.5 280.190625 252.065625 290.625 239.23125 290.625H60.76875C47.934375 290.625 37.5 280.190625 37.5 267.35625V131.25H32.428125C19.715625 131.25 9.375 120.909375 9.375 108.196875V32.428125C9.375 19.715625 19.715625 9.375 32.428125 9.375H267.571875C280.284375 9.375 290.625 19.715625 290.625 32.428125V108.196875C290.625 120.909375 280.284375 131.25 267.571875 131.25zM56.25 267.35625C56.25 269.85 58.275 271.875 60.76875 271.875H239.23125C241.725 271.875 243.75 269.85 243.75 267.35625V131.25H231.75C220.734375 131.25 211.209375 124.1625 208.05 113.615625L199.275 84.375H100.725L91.95 113.615625C88.790625 124.1625 79.265625 131.25 68.25 131.25H56.25zM271.875 32.428125C271.875 30.05625 269.94375 28.125 267.571875 28.125H32.428125C30.05625 28.125 28.125 30.05625 28.125 32.428125V108.196875C28.125 110.56875 30.05625 112.5 32.428125 112.5H68.25C70.921875 112.5 73.228125 110.784375 73.9875 108.234375L84.759375 72.309375C85.959375 68.34375 89.615625 65.625 93.75 65.625H206.25C210.384375 65.625 214.040625 68.34375 215.23125 72.309375L226.003125 108.234375C226.771875 110.784375 229.078125 112.5 231.75 112.5H267.571875C269.94375 112.5 271.875 110.56875 271.875 108.196875zM103.125 150H196.875C202.05 150 206.25 154.2 206.25 159.375S202.05 168.75 196.875 168.75H103.125C97.95 168.75 93.75 164.55 93.75 159.375S97.95 150 103.125 150zM103.125 187.5H196.875C202.05 187.5 206.25 191.7 206.25 196.875S202.05 206.25 196.875 206.25H103.125C97.95 206.25 93.75 202.05 93.75 196.875S97.95 187.5 103.125 187.5zM196.875 225H103.125C97.95 225 93.75 229.2 93.75 234.375S97.95 243.75 103.125 243.75H196.875C202.05 243.75 206.25 239.55 206.25 234.375S202.05 225 196.875 225z" />
    <glyph glyph-name="051-shop"
      unicode="&#xF133;"
      horiz-adv-x="300" d="M223.265625 9.375H76.734375C39.590625 9.375 9.375 39.590625 9.375 76.725V223.275C9.375 260.409375 39.590625 290.625 76.734375 290.625H223.275C260.409375 290.625 290.6250000000001 260.409375 290.6250000000001 223.275V76.725C290.6250000000001 39.590625 260.4093750000001 9.375 223.2656250000001 9.375zM76.734375 271.875C49.93125 271.875 28.125 250.06875 28.125 223.275V76.725C28.125 49.93125 49.93125 28.1249999999999 76.734375 28.1249999999999H223.275C250.06875 28.1249999999999 271.8750000000001 49.93125 271.8750000000001 76.725V223.275C271.8750000000001 250.06875 250.06875 271.875 223.2656250000001 271.875zM203.475 126.5625H121.096875C113.85 126.5625 107.26875 130.846875 104.334375 137.465625L71.68125 210.9375H59.015625C53.86875 210.9375 49.640625 215.165625 49.640625 220.3125S53.86875 229.6875 59.015625 229.6875H77.765625C81.478125 229.6875 84.825 227.503125 86.334375 224.11875L121.471875 145.06875L203.475 145.303125L231.6375 202.14375L115.265625 201.5625C110.08125 201.5625 105.890625 205.7625 105.890625 210.9375S110.08125 220.3125 115.265625 220.3125H232.003125C232.575 220.3125 242.334375 220.134375 247.603125 211.6125S248.6625 194.278125 248.409375 193.7625L219.88125 136.70625C216.75 130.453125 210.46875 126.5625 203.475 126.5625zM204.328125 70.3125C191.4 70.3125 180.890625 80.83125 180.890625 93.75S191.4 117.1875 204.328125 117.1875S227.7656250000001 106.66875 227.7656250000001 93.75S217.25625 70.3125 204.328125 70.3125zM204.328125 98.4375C201.75 98.4375 199.640625 96.3375 199.640625 93.75S201.75 89.0625 204.328125 89.0625S209.015625 91.1625 209.015625 93.75S206.90625 98.4375 204.328125 98.4375zM129.328125 70.3125C116.4 70.3125 105.890625 80.83125 105.890625 93.75S116.4 117.1875 129.328125 117.1875S152.765625 106.66875 152.765625 93.75S142.25625 70.3125 129.328125 70.3125zM129.328125 98.4375C126.75 98.4375 124.640625 96.3375 124.640625 93.75S126.75 89.0625 129.328125 89.0625S134.015625 91.1625 134.015625 93.75S131.90625 98.4375 129.328125 98.4375zM190.265625 164.0625H134.015625C128.83125 164.0625 124.640625 168.2625 124.640625 173.4375S128.83125 182.8125 134.015625 182.8125H190.265625C195.45 182.8125 199.640625 178.6125 199.640625 173.4375S195.45 164.0625 190.265625 164.0625z" />
    <glyph glyph-name="052-timer"
      unicode="&#xF134;"
      horiz-adv-x="300" d="M231.1875 9.375H68.8125C56.71875 9.375 46.875 19.21875 46.875 31.3125V65.625C46.875 67.70625 47.56875 69.73125 48.84375 71.38125L109.996875 150L48.84375 228.61875C47.56875 230.26875 46.875 232.29375 46.875 234.375V268.6875C46.875 280.78125 56.71875 290.625 68.8125 290.625H231.1875C243.28125 290.625 253.125 280.78125 253.125 268.6875V234.375C253.125 232.29375 252.43125 230.26875 251.146875 228.61875L190.0031250000001 150L251.146875 71.38125C252.43125 69.73125 253.125 67.70625 253.125 65.625V31.3125C253.125 19.21875 243.28125 9.375 231.1875 9.375zM65.625 62.409375V31.3125C65.625 29.55 67.05 28.125 68.8125 28.125H231.1875C232.95 28.125 234.375 29.55 234.375 31.3125V62.409375L170.728125 144.24375C168.09375 147.628125 168.09375 152.371875 170.728125 155.75625L234.375 237.590625V268.6875C234.375 270.45 232.95 271.875 231.1875 271.875H68.8125C67.05 271.875 65.625 270.45 65.625 268.6875V237.590625L129.28125 155.75625C131.915625 152.371875 131.915625 147.628125 129.28125 144.24375zM187.5 46.875H112.5C107.325 46.875 103.125 51.075 103.125 56.25S107.325 65.625 112.5 65.625H187.5C192.684375 65.625 196.875 61.425 196.875 56.25S192.684375 46.875 187.5 46.875zM187.5 234.375H112.5C107.325 234.375 103.125 238.575 103.125 243.75S107.325 253.125 112.5 253.125H187.5C192.684375 253.125 196.875 248.925 196.875 243.75S192.684375 234.375 187.5 234.375z" />
    <glyph glyph-name="053-vip"
      unicode="&#xF135;"
      horiz-adv-x="300" d="M150 32.8125C145.921875 32.8125 143.428125 35.475 143.04375 35.90625L11.79375 181.21875C8.915625 184.40625 8.56875 189.13125 10.95 192.703125L48.45 248.953125C50.19375 251.559375 53.11875 253.125 56.25 253.125H243.75C246.88125 253.125 249.80625 251.559375 251.55 248.953125L289.05 192.703125C291.4312500000001 189.13125 291.084375 184.40625 288.20625 181.21875L156.95625 35.90625C156.571875 35.475 154.078125 32.8125 150 32.8125zM30.6 188.371875L150 56.175L269.4000000000001 188.371875L238.734375 234.375H61.265625zM192.1875 187.5H107.8125C102.628125 187.5 98.4375 191.7 98.4375 196.875S102.628125 206.25 107.8125 206.25H192.1875C197.371875 206.25 201.5625 202.05 201.5625 196.875S197.371875 187.5 192.1875 187.5z" />
  </font>
</defs>
</svg>
